SERIE COMPLETA Jamestown (TV Series) T2 [2018][MICROHD WEB-DL 1080p][MP4][Latino Dual + Subs][08/08][1,00 GB][Multi]

juandavid

Well-known member
UPLOADER
REGISTRADO
COLABORADOR



Sinopsis

Serie de TV (2017-Actualidad). De los creadores de Downton Abbey, una serie dramática sobre los primeros colonos ingleses en la América de 1619.





INFO DE LA SERIE

Título original: Jamestown (TV Series)
Año: 2018
Duración: 60 min.
País: Reino Unido
Dirección: Samuel Donovan, Paul Wilmshurst, John Alexander, David Moore, David Evans
Guion: Bill Gallagher
Música: John Lunn
Fotografía: John Conroy, Suzie Lavelle, Ulf Brantas, Ashley Rowe
Reparto: Sophie Rundle, Niamh Walsh, Naomi Battrick, Stuart Martin, Max Beesley, Gwilym Lee, Dean Lennox Kelly, Jason Flemyng, Claire Cox, Luke Roskell, Matt Stokoe, Roseanne Supernault, Steven Waddington, Kalani Queypo, Shaun Dooley, Burn Gorman, Kindall Charters, Patsy Ferran, Paul C. Grenier, Tony Pitts, Ben Starr, Daniel Fearn, Paul Rattray, Raoul Trujillo, Callum McGowan, Connor Swindells
Productora: Emitida por Sky 1. Distribuida por NBC Universal Television. Carnival Film & Television, Sky 1
Género: Serie de TV. Drama | Siglo XVII. América colonial



Título original: Jamestown (TV Series)
Temporada: 2
Capítulos: 08
Calidad: HD 1080p
Resolución: 1920 x 1080
Idioma: Latino - Inglés + Sub. Lat/Ing
Video: MPEG4 Video (H264) 1920x1080 25fps 2575kbps [V: h264 high L4.0, yuv420p, 1920x1080, 2575 kb/s]
Audio: AAC 48000Hz stereo 192kbps [A: SoundHandler [eng] (aac lc, 48000 Hz, stereo, 192 kb/s)]
Audio: AAC 48000Hz stereo 127kbps [A: SoundHandler [spa] (aac lc, 48000 Hz, stereo, 127 kb/s)]
Audio: AAC 48000Hz stereo 127kbps [A: SoundHandler [spa] (aac lc, 48000 Hz, stereo, 127 kb/s)]
Formato: MP4
Peso aproximado por capitulo: 1,00 GB
Tamaño Total: 8,37 GB

INFO-ARCHIVO

General
Complete name : C:\Users\CLAUDIO\Videos\Jamestown 2\[S02.E01] Jamestown - Episodio 1\[S02.E01] Jamestown - Episodio 1.mp4
Format : MPEG-4
Format profile : Base Media
Codec ID : isom (isom/iso2/avc1/mp41)
File size : 1.00 GiB
Duration : 47 min 12 s
Overall bit rate mode : Variable
Overall bit rate : 3 035 kb/s
Writing application : Lavf58.33.100

Video
ID : 1
Format : AVC
Format/Info : Advanced Video Codec
Format profile : High@L4
Format settings : CABAC / 3 Ref Frames
Format settings, CABAC : Yes
Format settings, Reference fra : 3 frames
Codec ID : avc1
Codec ID/Info : Advanced Video Coding
Duration : 47 min 12 s
Bit rate : 2 576 kb/s
Width : 1 920 pixels
Height : 1 080 pixels
Display aspect ratio : 16:9
Frame rate mode : Constant
Frame rate : 25.000 FPS
Color space : YUV
Chroma subsampling : 4:2:0
Bit depth : 8 bits
Scan type : Progressive
Bits/(Pixel*Frame) : 0.050
Stream size : 870 MiB (85%)
Codec configuration box : avcC

Audio #1
ID : 2
Format : AAC LC
Format/Info : Advanced Audio Codec Low Complexity
Codec ID : mp4a-40-2
Duration : 47 min 12 s
Bit rate mode : Variable
Bit rate : 192 kb/s
Maximum bit rate : 257 kb/s
Channel(s) : 2 channels
Channel layout : L R
Sampling rate : 48.0 kHz
Frame rate : 46.875 FPS (1024 SPF)
Compression mode : Lossy
Stream size : 64.8 MiB (6%)
Language : English
Default : Yes
Alternate group : 1

Audio #2
ID : 3
Format : AAC LC
Format/Info : Advanced Audio Codec Low Complexity
Codec ID : mp4a-40-2
Duration : 47 min 12 s
Bit rate mode : Variable
Bit rate : 128 kb/s
Maximum bit rate : 166 kb/s
Channel(s) : 2 channels
Channel layout : L R
Sampling rate : 48.0 kHz
Frame rate : 46.875 FPS (1024 SPF)
Compression mode : Lossy
Stream size : 43.2 MiB (4%)
Language : Spanish
Default : No
Alternate group : 1

Audio #3
ID : 4
Format : AAC LC
Format/Info : Advanced Audio Codec Low Complexity
Codec ID : mp4a-40-2
Duration : 47 min 12 s
Bit rate mode : Variable
Bit rate : 128 kb/s
Maximum bit rate : 162 kb/s
Channel(s) : 2 channels
Channel layout : L R
Sampling rate : 48.0 kHz
Frame rate : 46.875 FPS (1024 SPF)
Compression mode : Lossy
Stream size : 43.2 MiB (4%)
Language : Spanish
Default : No
Alternate group : 1



Dropapk - Rapidgator - Nitroflare - UptoBox

You must reply before you can see the hidden data contained here.
 
Arriba