SERIE COMPLETA LOBO (Serie de TV) Temporada 1 [2018][MICROHD WEB-DL 720p][MP4][Latino Dual 5.1 + Subs][06/06][1,10 GB][Multi]

juandavid

Well-known member
UPLOADER
REGISTRADO
COLABORADOR



Sinopsis

Una unidad de seguridad especial, con arriesgadas misiones por toda Turquía, se enfrenta al peligro y la tragedia, tanto en el terreno como en casa






INFO DE LA SERIE

Título original: Börü (TV Series) - LOBO (Serie de TV)
Año: 2018
Duración: 80 min.
País: Turquía
Dirección: Alper Caglar (Creador), Can Emre, Cem Ozuduru
Guion: Alper Caglar, Emre Sirel, Cem Ozuduru, Can Emre
Música: Lincoln Jaeger
Fotografía: Ender Ercan
Reparto: Ahu Türkpençe, Murat Arkin, Ahmet Pinar, Serkan Çayoglu, Atif Emir Benderlioglu, Firat Dogruloglu, Can Nergis, Armagan Oguz, Mesut Akusta, Ozan Agaç, Bedii Akin, Erkan Bektas, Hüseyin Avni Danyal, Ozge Gurel, Ergun Kuyucu, Melis Hacic, Mehmet Emin Kadagan, Tan Altay, Gürol Tonbul, Asuman Karakollukcu, Nursultan Aitbosunov
Género: Serie de TV. Acción. Thriller



Título original: LOBO (Serie de TV)
Temporada: 1
Capítulos: 06
Calidad: HD 720p
Resolución: 1280x720
Idioma: Latino - Inglés + Sub. Cas/Ing
Video: MPEG4 Video (H264) 1280x720 25fps 1188kbps [V: h264 high L3.1, yuv420p, 1280x720, 1188 kb/s]
Audio: DD+ 48000Hz 6ch 256kbps [A: Audio Media Handler [eng] (eac3, 48000 Hz, 5.1, 256 kb/s)]
Audio: DD+ 48000Hz 6ch 256kbps [A: Audio Media Handler [spa] (eac3, 48000 Hz, 5.1, 256 kb/s)]
Audio: DD+ 48000Hz 6ch 256kbps [A: Audio Media Handler [spa] (eac3, 48000 Hz, 5.1, 256 kb/s)]
Formato: MP4
Peso aproximado por capitulo: 1,10 GB
Tamaño Total: 3,25 GB

INFO-ARCHIVO

General
Complete name : C:\Users\CLAUDIO\Videos\LOBO 720p\[S01.E01] LOBO - A veces los monstruos ganan\[S01.E01] LOBO - A veces los monstruos ganan.mp4
Format : MPEG-4
Format profile : Base Media
Codec ID : isom (isom/iso2/avc1/mp41)
File size : 1.11 GiB
Duration : 1 h 20 min
Overall bit rate : 1 962 kb/s
Writing application : Lavf58.33.100

Video
ID : 1
Format : AVC
Format/Info : Advanced Video Codec
Format profile : High@L3.1
Format settings : CABAC / 3 Ref Frames
Format settings, CABAC : Yes
Format settings, Reference fra : 3 frames
Codec ID : avc1
Codec ID/Info : Advanced Video Coding
Duration : 1 h 20 min
Source duration : 1 min 53 s
Bit rate : 1 188 kb/s
Width : 1 280 pixels
Height : 720 pixels
Display aspect ratio : 16:9
Frame rate mode : Constant
Frame rate : 25.000 FPS
Color space : YUV
Chroma subsampling : 4:2:0
Bit depth : 8 bits
Scan type : Progressive
Bits/(Pixel*Frame) : 0.052
Stream size : 685 MiB (61%)
Source stream size : 685 MiB (61%)
mdhd_Duration : 4838200
Codec configuration box : avcC

Audio #1
ID : 2
Format : E-AC-3
Format/Info : Enhanced AC-3
Commercial name : Dolby Digital Plus
Codec ID : ec-3
Duration : 1 h 20 min
Bit rate mode : Constant
Bit rate : 256 kb/s
Channel(s) : 6 channels
Channel layout : L R C LFE Ls Rs
Sampling rate : 48.0 kHz
Frame rate : 31.250 FPS (1536 SPF)
Compression mode : Lossy
Stream size : 148 MiB (13%)
Language : English
Service kind : Complete Main
Default : Yes
Alternate group : 1

Audio #2
ID : 3
Format : E-AC-3
Format/Info : Enhanced AC-3
Commercial name : Dolby Digital Plus
Codec ID : ec-3
Duration : 1 h 20 min
Bit rate mode : Constant
Bit rate : 256 kb/s
Channel(s) : 6 channels
Channel layout : L R C LFE Ls Rs
Sampling rate : 48.0 kHz
Frame rate : 31.250 FPS (1536 SPF)
Compression mode : Lossy
Stream size : 148 MiB (13%)
Language : Spanish
Service kind : Complete Main
Default : Yes
Alternate group : 2

Audio #3
ID : 4
Format : E-AC-3
Format/Info : Enhanced AC-3
Commercial name : Dolby Digital Plus
Codec ID : ec-3
Duration : 1 h 20 min
Bit rate mode : Constant
Bit rate : 256 kb/s
Channel(s) : 6 channels
Channel layout : L R C LFE Ls Rs
Sampling rate : 48.0 kHz
Frame rate : 31.250 FPS (1536 SPF)
Compression mode : Lossy
Stream size : 148 MiB (13%)
Language : Spanish
Service kind : Complete Main
Default : Yes
Alternate group : 3



Dropapk - Rapidgator - Katfile - Nitroflare

You must reply before you can see the hidden data contained here.
 
Arriba