DOCUMENTAL The Story of God (TV Series) Temporada 2 [2017][MICROHD WEB-DL 720p][MP4][Latino Dual DD 5.1 + Subs][03/03][807 MB][Multi]

juandavid

Well-known member
UPLOADER
REGISTRADO
COLABORADOR



Sinopsis

Morgan Freeman nos presenta cómo varias religiones perciben la religión, el apocalipsis, el más allá y la vida después de la muerte.

CAPTURAS



INFO DE LA SERIE

Título original: The Story of God (TV Series)
Año: 2017
Duración: 50 min.
País: Estados Unidos
Dirección: Corey Becker
Guion: Frank Kosa, Lisa Michelle Singer, Scott Tiffany, James Younger
Música: Lorne Balfe
Fotografía: Wes Dorman, Kris Denton, Tim Metzger
Reparto: Documentary, Morgan Freeman, Lydia Baikalova, Bernard Bullen, Jose Rosete, Alexander Wraith
Productora: National Geographic Channel / Revelations Entertainment
Género: Serie de TV. Documental | Religión

INFO RIPEO

Título original: The Story of God (TV Series)
Temporada: 2
Capítulos: 03
Calidad: HD 720p
Resolución: 1280 x 720p
Idioma: Latino - Inglés + Sub. Lat/Ing
Video: MPEG4 Video (H264) 1280x720 29.97fps 1709kbps [V: h264 high L3.1, yuv420p, 1280x720, 1709 kb/s]
Audio: DD+ 48000Hz 6ch 256kbps [A: Audio Media Handler [eng] (eac3, 48000 Hz, 5.1, 256 kb/s)]
Audio: AAC 48000Hz stereo 127kbps [A: Audio Media Handler [spa] (aac he-aac, 48000 Hz, stereo, 127 kb/s)]
Audio: AAC 48000Hz stereo 127kbps [A: Audio Media Handler [eng] (aac he-aac, 48000 Hz, stereo, 127 kb/s)]
Formato: MP4
Peso aproximado por capitulo: 807 MB
Tamaño Total: 2,54 GB

INFO-ARCHIVO


General
Complete name : C:\Users\david\Videos\La historia de Dios con Morgan 2\[T2.Ep1] La historia de Dios con Morgan Freeman - El elegido\[T2.Ep1] La historia de Dios con Morgan Freeman - El elegido.mp4
Format : MPEG-4
Format profile : Base Media
Codec ID : isom (isom/iso2/avc1/mp41)
File size : 808 MiB
Duration : 50 min 37 s
Overall bit rate : 2 230 kb/s
Writing application : Lavf58.33.100

Video
ID : 1
Format : AVC
Format/Info : Advanced Video Codec
Format profile : High@L3.1
Format settings, CABAC : Yes
Format settings, RefFrames : 3 frames
Codec ID : avc1
Codec ID/Info : Advanced Video Coding
Duration : 50 min 37 s
Bit rate : 1 710 kb/s
Width : 1 280 pixels
Height : 720 pixels
Display aspect ratio : 16:9
Frame rate mode : Constant
Frame rate : 29.970 FPS
Color space : YUV
Chroma subsampling : 4:2:0
Bit depth : 8 bits
Scan type : Progressive
Bits/(Pixel*Frame) : 0.062
Stream size : 619 MiB (77%)

Audio #1
ID : 2
Format : E-AC-3
Format/Info : Enhanced Audio Coding 3
Format settings, Endianness : Big
Codec ID : ec-3
Duration : 50 min 37 s
Bit rate mode : Constant
Bit rate : 256 kb/s
Channel(s) : 6 channels
Channel positions : Front: L C R, Side: L R, LFE
Sampling rate : 48.0 kHz
Frame rate : 187.500 FPS (256 SPF)
Bit depth : 16 bits
Compression mode : Lossy
Stream size : 92.7 MiB (11%)
Language : English
Service kind : Complete Main
Default : Yes
Alternate group : 1

Audio #2
ID : 3
Format : AAC
Format/Info : Advanced Audio Codec
Format profile : HE-AAC / LC
Codec ID : 40
Duration : 50 min 37 s
Bit rate mode : Constant
Bit rate : 128 kb/s
Channel(s) : 2 channels
Channel positions : Front: L R
Sampling rate : 48.0 kHz / 24.0 kHz
Frame rate : 23.438 FPS (1024 SPF)
Compression mode : Lossy
Stream size : 46.3 MiB (6%)
Language : Spanish
Default : Yes
Alternate group : 2

Audio #3
ID : 4
Format : AAC
Format/Info : Advanced Audio Codec
Format profile : HE-AAC / LC
Codec ID : 40
Duration : 50 min 37 s
Bit rate mode : Constant
Bit rate : 128 kb/s
Channel(s) : 2 channels
Channel positions : Front: L R
Sampling rate : 48.0 kHz / 24.0 kHz
Frame rate : 23.438 FPS (1024 SPF)
Compression mode : Lossy
Stream size : 46.3 MiB (6%)
Language : English
Default : Yes
Alternate group : 3

UptoBox - Katfile - Ddl - Usersdrive - Speed-Down - Up-4ever

DESCARGA

You must reply before you can see the hidden data contained here.


You must reply before you can see the hidden data contained here.
 
Arriba